Lady Bird 2017 DVDScr XVID AC3 HQ Hive-CM8

Lady Bird 2017 DVDScr XVID AC3 HQ Hive-CM8

Lady Bird 2017 DVDScr XVID AC3 HQ Hive-CM8
Rating 8.4 / 1011,852 people voted
Released 2017
Genre Comedy, Drama
Actors Saoirse Ronan, Timothée Chalamet, Odeya Rush, Laurie Metcalf, Lucas Hedges, Kathryn Newton, Jake McDorman, Beanie Feldstein, Tracy Letts, Lois Smith, Danielle Macdonald, Laura Marano, Andy Buckley, Jordan Rodrigues, Stephen Henderson

IMDB link http://www.imdb.com/title/tt4925292/

Plot In the early 2000s, an artistically-inclined seventeen year-old comes of age in Sacramento, California.

Lady Bird 2017 DVDScr XVID AC3 HQ Hive-CM8Lady Bird 2017 DVDScr XVID AC3 HQ Hive-CM8Lady Bird 2017 DVDScr XVID AC3 HQ Hive-CM8Lady Bird 2017 DVDScr XVID AC3 HQ Hive-CM8

Lady.Bird.2017.DVDScr.XVID.AC3.HQ.Hive-CM8
Thx Hive
CM8 Doing It Right The First Time 
Source: a cool dude on the street
thx

Notes:
one more goodie
Merry Christmas to everyone, from me and TiTAN
Don´t forget watching a Screener is not like the real thing, you should still all go to the cinema and support the Producers. We are especially sharing this for the people who cant visit the cinema due to illness, or because it is a limited release that doesn't make it to their country. So those people also can experience some award nominated movies..Enjoy

Encode:
quality was nice, not much to do
enjoy

Screeners:
We are still missing downsizing, hostiles and phantom thread, anyone want to share for the collection?
Don't post info public or on any blog its too risky, it has to be done safely and secure in private, and we have proven that we can do it.
Msg us cm8crew@hushmail.com - we will respect your wishes
if you want to share with us in private it will stay private

Video: 720x384 @bitrate ~1600 2pass
Audio: English Stereo 
Sample: yes included

General
Complete name                  : Lady.Bird.2017.DVDScr.XVID.AC3.HQ.Hive-CM8.avi
Format                         : AVI
Format/Info                    : Audio Video Interleave
File size                      : 1.40 GiB
Duration                       : 1h 32mn
Overall bit rate               : 2 151 Kbps
Writing application            : Nandub v1.0rc2
Writing library                : Nandub build 1853/release

Video
ID                             : 0
Format                         : MPEG-4 Visual
Format profile                 : Advanced Simple@L5
Format settings, BVOP          : 2
Format settings, QPel          : Yes
Format settings, GMC           : No warppoints
Format settings, Matrix        : Default (H.263)
Muxing mode                    : Packed bitstream
Codec ID                       : XVID
Codec ID/Hint                  : XviD
Duration                       : 1h 32mn
Bit rate                       : 1 884 Kbps
Width                          : 720 pixels
Height                         : 384 pixels
Display aspect ratio           : 1.85:1
Frame rate                     : 30.000 fps
Color space                    : YUV
Chroma subsampling             : 4:2:0
Bit depth                      : 8 bits
Scan type                      : Progressive
Compression mode               : Lossy
Bits/(Pixel*Frame)             : 0.227
Stream size                    : 1.22 GiB (88%)
Writing library                : XviD 1.2.1 (UTC 2008-12-04)

Audio
ID                             : 1
Format                         : AC-3
Format/Info                    : Audio Coding 3
Mode extension                 : CM (complete main)
Format settings, Endianness    : Big
Codec ID                       : 2000
Duration                       : 1h 32mn
Bit rate mode                  : Constant
Bit rate                       : 256 Kbps
Channel(s)                     : 2 channels
Channel positions              : Front: L R
Sampling rate                  : 48.0 KHz
Bit depth                      : 16 bits
Compression mode               : Lossy
Delay relative to video        : 12ms
Stream size                    : 170 MiB (12%)
Alignment                      : Split accross interleaves
Interleave, duration           : 33 ms (1.00 video frame)
Interleave, preload duration   : 500 ms


http://www.filefactory.com/file/1b9nt6fj9off/Lady.Bird.2017.DVDScr.XVID.AC3.HQ.Hive-CM8.avi

https://rapidgator.net/file/c2c0929d3dd15954b69bc6cdb73acbf7/Lady.Bird.2017.DVDScr.XVID.AC3.HQ.Hive-CM8.avi.html

Lady.Bird.2017.DVDScr.XVID.AC3.HQ.Hive-CM8.avi
dle 11.0
Donate Bitcoin 1SLKcwi5VbQrpoKnXUGfBLVcj3VCWVfnQ
Donate Ether 0x032f4d361571dA8cF5602D3C73530817365052B8
0
Information
Users of Guests are not allowed to comment this publication.