Яндекс.Метрика

Paddington 2 2017 720p HDTS x264 AC3 TiTAN

Paddington 2 2017 720p HDTS x264 AC3 TiTAN

Paddington 2 2017 720p HDTS x264 AC3 TiTAN
Rating 8.2 / 105,020 people voted
Released 2017
Genre Animation, Adventure, Comedy
Actors Michael Gambon, Imelda Staunton, Ben Whishaw, Madeleine Harris, Samuel Joslin, Sally Hawkins, Hugh Bonneville, Julie Walters, Marie-France Alvarez, Sanjeev Bhaskar, Ben Miller, Jessica Hynes, Robbie Gee, Nicholas Woodeson, Alex Jordan

IMDB link http://www.imdb.com/title/tt4468740/

Plot Paddington, now happily settled with the Brown family and a popular member of the local community, picks up a series of odd jobs to buy the perfect present for his Aunt Lucys 100th birthday, only for the gift to be stolen.

Paddington 2 2017 720p HDTS x264 AC3 TiTANPaddington 2 2017 720p HDTS x264 AC3 TiTANPaddington 2 2017 720p HDTS x264 AC3 TiTANPaddington 2 2017 720p HDTS x264 AC3 TiTANPaddington 2 2017 720p HDTS x264 AC3 TiTANPaddington 2 2017 720p HDTS x264 AC3 TiTAN

source: 1080p a friend

General
Format                                   : Matroska
Format version                           : Version 2
File size                                : 2.27 GiB
Duration                                 : 1h 36mn
Overall bit rate mode                    : Variable
Overall bit rate                         : 3 380 Kbps

Video
ID                                       : 1
Format                                   : AVC
Format/Info                              : Advanced Video Codec
Format profile                           : High@L4.1
Format settings, CABAC                   : Yes
Format settings, ReFrames                : 3 frames
Codec ID                                 : V_MPEG4/ISO/AVC
Duration                                 : 1h 36mn
Bit rate mode                            : Variable
Bit rate                                 : 3 250 Kbps
Maximum bit rate                         : 40.0 Mbps
Width                                    : 1 280 pixels
Height                                   : 480 pixels
Display aspect ratio                     : 2.667
Frame rate mode                          : Constant
Frame rate                               : 30.000 fps
Color space                              : YUV
Chroma subsampling                       : 4:2:0
Bit depth                                : 8 bits
Scan type                                : Progressive
Bits/(Pixel*Frame)                       : 0.176
Stream size                              : 2.14 GiB (94%)
Default                                  : Yes
Forced                                   : No
Color primaries                          : BT.709
Transfer characteristics                 : BT.709
Matrix coefficients                      : BT.709

Audio
ID                                       : 2
Format                                   : MPEG Audio
Format version                           : Version 1
Format profile                           : Layer 3
Mode                                     : Joint stereo
Mode extension                           : MS Stereo
Codec ID                                 : A_MPEG/L3
Codec ID/Hint                            : MP3
Duration                                 : 1h 36mn
Bit rate mode                            : Constant
Bit rate                                 : 128 Kbps
Channel(s)                               : 2 channels
Sampling rate                            : 44.1 KHz
Compression mode                         : Lossy
Delay relative to video                  : 1s 350ms
Stream size                              : 88.2 MiB (4%)
Default                                  : Yes
Forced                                   : No


http://www.filefactory.com/file/1z0t7xztn0bx/Paddington.2.2017.720p.HDTS.x264.AC3-TiTAN.mkv

http://www.filefactory.com/file/23ffqkg9ji5x/Paddington_2_2017_720p_HDTS_x264_AC3_TiTAN.part1.rar
http://www.filefactory.com/file/75ul80f3jqen/Paddington_2_2017_720p_HDTS_x264_AC3_TiTAN.part2.rar

http://www.filefactory.com/file/12qqnnxtjx7t/Paddington.2.2017.720p.HDTS.x264.AC3.TiTAN.part1.rar
http://www.filefactory.com/file/39s8yewfijsx/Paddington.2.2017.720p.HDTS.x264.AC3.TiTAN.part2.rar
http://www.filefactory.com/file/7ab0mk3raav/Paddington.2.2017.720p.HDTS.x264.AC3.TiTAN.part3.rar

https://rg.to/file/73082273e5409d1c6d01610df0dc5caf/Paddington.2.2017.720p.HDTS.x264.AC3-TiTAN.mkv.html

https://rg.to/file/f42ff731edcbcc1a0e526e18fac3d434/Paddington_2_2017_720p_HDTS_x264_AC3_TiTAN.part1.rar.html
https://rg.to/file/d4799bf4c849c248279bfdf1ed3efe05/Paddington_2_2017_720p_HDTS_x264_AC3_TiTAN.part2.rar.html

https://rg.to/file/4aa2cc446a35fe139a02446aec1e54fc/Paddington.2.2017.720p.HDTS.x264.AC3.TiTAN.part1.rar.html
https://rg.to/file/bc4c3f0886fea1b4882101fdf93b34ff/Paddington.2.2017.720p.HDTS.x264.AC3.TiTAN.part2.rar.html
https://rg.to/file/6a37ba462441d382edd850151cb714ab/Paddington.2.2017.720p.HDTS.x264.AC3.TiTAN.part3.rar.html
dle 11.0
Donate Bitcoin 1SLKcwi5VbQrpoKnXUGfBLVcj3VCWVfnQ
Donate Ether 0x032f4d361571dA8cF5602D3C73530817365052B8
0
Information
Users of Guests are not allowed to comment this publication.