Bright 2017 1080p NF WEB-DL DD+5 1 H 264-iKA

Bright 2017 1080p NF WEB-DL DD+5 1 H 264-iKA

Bright 2017 1080p NF WEB-DL DD+5 1 H 264-iKA
Rating 6 / 10123 people voted
Released 2017
Genre Action, Crime, Fantasy
Actors Will Smith, Noomi Rapace, Lucy Fry, Joel Edgerton, Veronica Ngo, Jay Hernandez, Edgar Ramírez, Ike Barinholtz, Andrea Navedo, Dawn Olivieri, Chelsea Rendon, Brad William Henke, Nadia Gray, Happy Anderson, Nea Dune

IMDB link http://www.imdb.com/title/tt5519340/

Plot Set in a world where mystical creatures live side by side with humans. A human cop is forced to work with an Orc to find a weapon everyone is prepared to kill for.

Bright 2017 1080p NF WEB-DL DD+5 1 H 264-iKABright 2017 1080p NF WEB-DL DD+5 1 H 264-iKABright 2017 1080p NF WEB-DL DD+5 1 H 264-iKA

Video

ID                                       : 1
Format                                   : AVC
Format/Info                              : Advanced Video Codec
Format profile                           : Main@L4
Format settings                          : CABAC / 3 Ref Frames
Format settings, CABAC                   : Yes
Format settings, ReFrames                : 3 frames
Codec ID                                 : V_MPEG4/ISO/AVC
Duration                                 : 1 h 57 min
Bit rate mode                            : Variable
Bit rate                                 : 2 740 kb/s
Maximum bit rate                         : 4 110 kb/s
Width                                    : 1 920 pixels
Height                                   : 1 080 pixels
Display aspect ratio                     : 16:9
Frame rate mode                          : Constant
Frame rate                               : 24.000 FPS
Color space                              : YUV
Chroma subsampling                       : 4:2:0
Bit depth                                : 8 bits
Scan type                                : Progressive
Bits/(Pixel*Frame)                       : 0.055
Stream size                              : 2.24 GiB (88%)
Default                                  : Yes
Forced                                   : No

Audio

ID                                       : 2
Format                                   : AC-3
Format/Info                              : Audio Coding 3
Codec ID                                 : A_AC3
Duration                                 : 1 h 57 min
Bit rate mode                            : Constant
Bit rate                                 : 384 kb/s
Channel(s)                               : 6 channels
Channel positions                        : Front: L C R, Side: L R, LFE
Sampling rate                            : 48.0 kHz
Frame rate                               : 31.250 FPS (1536 SPF)
Bit depth                                : 16 bits
Compression mode                         : Lossy
Stream size                              : 323 MiB (12%)
Title                                    : Bright.2017.1080p.WEB.x264-CiELOS
Language                                 : English
Service kind                             : Complete Main
Default                                  : No
Forced                                   : No

Text

ID                                       : 3
Format                                   : UTF-8
Codec ID                                 : S_TEXT/UTF8
Codec ID/Info                            : UTF-8 Plain Text
Duration                                 : 1 h 56 min
Bit rate                                 : 74 b/s
Count of elements                        : 1978
Stream size                              : 63.3 KiB (0%)
Title                                    : English
Language                                 : English,English,Spanish,
                                          Dutch,French,German,
Default                                  : Yes
Forced                                   : No


http://www.filefactory.com/file/5d9tmvnm061/Bright.2017.1080p.NF.WEB-DL.DD5.1.H.264-iKA.part1.rar
http://www.filefactory.com/file/3sdehf519zpv/Bright.2017.1080p.NF.WEB-DL.DD5.1.H.264-iKA.part2.rar
http://www.filefactory.com/file/6oa5dilvoiqp/Bright.2017.1080p.NF.WEB-DL.DD5.1.H.264-iKA.part3.rar

http://www.filefactory.com/file/7aglb51t4jpd/Bright.2017.720p.NF.WEBRip.DDP5.1.x264-NTb.mkv

http://www.filefactory.com/file/8lusct0pe6n/Bright.2017.720p.HDRip.X264.AC3-EVO.mkv

http://www.filefactory.com/file/3yw4uga08fb3/Bright.2017.HDRip.XviD.AC3-EVO.avi

http://www.filefactory.com/file/349fvnxkq1kb/bright.2017.1080p.webrip.x264-strife.mkv

http://www.filefactory.com/file/15note35wh6r/bright.2017.720p.webrip.x264-strife.mkv


http://www.filefactory.com/file/1gc3caiilti3/Bright.2017.720p.WEBRip.XviD.AC3-FGT.avi

http://www.filefactory.com/file/k2ilypsj7j3/Bright.2017.1080p.WEB.x264-CiELOS.mkv

http://www.filefactory.com/file/75hagzom3xg3/Bright.2017.WEBRip.XviD.AC3-FGT.avi

http://www.filefactory.com/file/5uelmw5pujx/Bright.2017.WEBRip.XviD.MP3-FGT.avi

http://www.filefactory.com/file/34s8qo5ebg6b/Bright.2017.WEBRip.x264-FGT.mp4

http://www.filefactory.com/file/2ibk9izs1tl9/bright.2017.internal.multi.1080p.web.x264-cielos.mkv

https://rg.to/file/a4f1a4094150dfb4409dc1f4b703f7d0/bright.2017.internal.multi.1080p.web.x264-cielos.mkv.html

https://rg.to/file/63aea0cccb096d3b40cd465e9df8d162/Bright.2017.720p.NF.WEBRip.DDP5.1.x264-NTb.mkv.html

https://rg.to/file/9f6b20624aa24cd041b0f8d5bdfed5f4/Bright.2017.720p.WEBRip.XviD.AC3-FGT.avi.html
https://rg.to/file/16b1b4632e16fc18c04c284e54f96de8/Bright.2017.1080p.WEB.x264-CiELOS.mkv.html
https://rg.to/file/ca0d32e89513565233b258629ab3eb97/bright.2017.1080p.webrip.x264-strife.mkv.html

https://rg.to/file/3f5f70d940d5f8f7be2b5b2fbc0da15c/Bright.2017.720p.HDRip.X264.AC3-EVO.mkv.html

https://rg.to/file/4de4d0b3cb11b2535637e34053c623c5/Bright.2017.HDRip.XviD.AC3-EVO.avi.html

https://rg.to/file/b6a018b836d6901d414faf7cf7ca46fa/bright.2017.720p.webrip.x264-strife.mkv.html

https://rg.to/file/67513edb926075aaab8262a1974d79ed/Bright.2017.WEBRip.XviD.AC3-FGT.avi.html

https://rg.to/file/8a4fb796a402e763314d4b07e0d1cbc9/Bright.2017.WEBRip.XviD.MP3-FGT.avi.html

https://rg.to/file/e0a2424219d1eb06024661fcdb7df0f6/Bright.2017.WEBRip.x264-FGT.mp4.html

https://rg.to/file/82eeed35c8116bc5adc20b20b6482db5/Bright.2017.1080p.NF.WEB-DL.DD5.1.H.264-iKA.part1.rar.html
https://rg.to/file/89b195f3a092ab011ff38dc44595846b/Bright.2017.1080p.NF.WEB-DL.DD5.1.H.264-iKA.part2.rar.html
https://rg.to/file/fc8788e0e6be6804f0ab7abe3a219645/Bright.2017.1080p.NF.WEB-DL.DD5.1.H.264-iKA.part3.rar.html
dle 11.0
Donate Bitcoin 1SLKcwi5VbQrpoKnXUGfBLVcj3VCWVfnQ
Donate Ether 0x032f4d361571dA8cF5602D3C73530817365052B8
0
Information
Users of Guests are not allowed to comment this publication.