The Founder 2016 DVDScr XVID AC3 HQ Hive-CM8

The Founder 2016 DVDScr XVID AC3 HQ Hive-CM8

The Founder 2016 DVDScr XVID AC3 HQ Hive-CM8
Rating 7.3 / 104,638 people voted
Released 2016
Genre Biography, Drama, History
Actors Michael Keaton, Nick Offerman, John Carroll Lynch

IMDB link http://www.imdb.com/title/tt4276820/

Plot Directed by John Lee Hancock. With Michael Keaton, Nick Offerman, John Carroll Lynch, Linda Cardellini. The story of Ray Kroc, a salesman who turned two brothers' innovative fast food eatery, McDonald's, into one of the biggest restaurant businesses in the world with a combination of ambition, persistence, and ruthlessness.

The Founder 2016 DVDScr XVID AC3 HQ Hive-CM8The Founder 2016 DVDScr XVID AC3 HQ Hive-CM8The Founder 2016 DVDScr XVID AC3 HQ Hive-CM8

The.Founder.2016.DVDScr.XVID.AC3.HQ.Hive-CM8
Thx Hive
CM8 Doing It Right The First Time 
Source: Screener Thanks m8

Notes:
Another Quality-release, We are at the end of this season.
We could have done this title mid DEC, but out of respect for Hollywood and the studios, we delayed this title until it was in the cinema.
2 + weeks so that the movie has a fair chance to play in the theater, and make their budget.

We don't want any trouble, so all titles have been delayed by over a month or more, or until the web-dl was either out, or very close.

As always our goal is not to hurt anyone, just to give people who already watched a movie in the cinema a 2nd chance to watch their favorite one again at a later time at home.  Also for the people who are not able to go to the cinema because of any kind of health issues.. Etc, so they can experience some award titles also. We are trying to be the good ones here. We know some may not appreciate this as an reason to share these movies, but hopefully by delaying the release dates, it's more agreeable for everyone.

Finally: a huge thanks to our man on the street who sold us all these SCR discs, mid Dec - you've helped bring some happiness to a lot of people and their families.
THX M8

Encode:
Quality was nice, fixed RGB and brightness.
removed all watermarks from video and audio, safety first.
Enjoy

Video: 720x304 @bitrate 1700 2pass
Audio: English AC3 Stereo

General
Complete name                  : The.Founder.2016.DVDScr.XVID.AC3.HQ.Hive-CM8.avi
Format                         : AVI
Format/Info                    : Audio Video Interleave
File size                      : 1.66 GiB
Duration                       : 1h 55mn
Overall bit rate               : 2 070 Kbps
Writing application            : Nandub v1.0rc2
Writing library                : Nandub build 1853/release

Video
ID                             : 0
Format                         : MPEG-4 Visual
Format profile                 : Advanced Simple@L5
Format settings, BVOP          : 2
Format settings, QPel          : Yes
Format settings, GMC           : No warppoints
Format settings, Matrix        : Default (H.263)
Muxing mode                    : Packed bitstream
Codec ID                       : XVID
Codec ID/Hint                  : XviD
Duration                       : 1h 55mn
Bit rate                       : 1 802 Kbps
Width                          : 720 pixels
Height                         : 304 pixels
Display aspect ratio           : 2.35:1
Frame rate                     : 29.970 fps
Color space                    : YUV
Chroma subsampling             : 4:2:0
Bit depth                      : 8 bits
Scan type                      : Progressive
Compression mode               : Lossy
Bits/(Pixel*Frame)             : 0.275
Stream size                    : 1.45 GiB (87%)
Writing library                : XviD 1.2.1 (UTC 2008-12-04)

Audio
ID                             : 1
Format                         : AC-3
Format/Info                    : Audio Coding 3
Mode extension                 : CM (complete main)
Format settings, Endianness    : Big
Codec ID                       : 2000
Duration                       : 1h 55mn
Bit rate mode                  : Constant
Bit rate                       : 256 Kbps
Channel(s)                     : 2 channels
Channel positions              : Front: L R
Sampling rate                  : 48.0 KHz
Bit depth                      : 16 bits
Compression mode               : Lossy
Delay relative to video        : 26ms
Stream size                    : 211 MiB (12%)
Alignment                      : Split accross interleaves
Interleave, duration           : 33 ms (1.00 video frame)
Interleave, preload duration   : 500 ms


http://www.filefactory.com/file/2vin9h0c16mp/The.Founder.2016.DVDScr.XVID.AC3.HQ.Hive-CM8.avi

http://uploaded.net/file/tmdintyq/The.Founder.2016.DVDScr.XVID.AC3.HQ.Hive-CM8.avi
скачать dle 11.0фильмы бесплатно
Donate Bitcoin 1SLKcwi5VbQrpoKnXUGfBLVcj3VCWVfnQ
Donate Ether 0x032f4d361571dA8cF5602D3C73530817365052B8
0
Information
Users of Guests are not allowed to comment this publication.