La La Land 2016 DVDScr XVID AC3 HQ Hive-CM8

La La Land 2016 DVDScr XVID AC3 HQ Hive-CM8

La La Land 2016 DVDScr XVID AC3 HQ Hive-CM8
Rating 8.8 / 1044,547 people voted
Released 2016
Genre Comedy, Drama, Musical
Actors Ryan Gosling, Emma Stone, Rosemarie DeWitt

IMDB link http://www.imdb.com/title/tt3783958/

Plot A jazz pianist falls for an aspiring actress in Los Angeles.

La La Land 2016 DVDScr XVID AC3 HQ Hive-CM8La La Land 2016 DVDScr XVID AC3 HQ Hive-CM8La La Land 2016 DVDScr XVID AC3 HQ Hive-CM8


Thx Hive
CM8 Doing It Right The First Time 
Source: DVD-R9 Thanks to DRs

Notes:
Finally first quality release, we do think this is a hot title and we decided to share it with the public

Encode:
fixed brightness,contrast,rgb and added sharpness.
removed all watermarks from video and audio, safety first.
enjoy

General
Complete name                  : La.La.Land.2016.DVDScr.XVID.AC3.HQ.Hive-CM8.avi
Format                         : AVI
Format/Info                    : Audio Video Interleave
File size                      : 1.63 GiB
Duration                       : 2h 7mn
Overall bit rate               : 1 825 Kbps
Writing application            : Nandub v1.0rc2
Writing library                : Nandub build 1853/release

Video
ID                             : 0
Format                         : MPEG-4 Visual
Format profile                 : Advanced Simple@L5
Format settings, BVOP          : 2
Format settings, QPel          : Yes
Format settings, GMC           : No warppoints
Format settings, Matrix        : Default (H.263)
Muxing mode                    : Packed bitstream
Codec ID                       : XVID
Codec ID/Hint                  : XviD
Duration                       : 2h 7mn
Bit rate                       : 1 559 Kbps
Width                          : 720 pixels
Height                         : 288 pixels
Display aspect ratio           : 2.500
Frame rate                     : 23.976 fps
Color space                    : YUV
Chroma subsampling             : 4:2:0
Bit depth                      : 8 bits
Scan type                      : Progressive
Compression mode               : Lossy
Bits/(Pixel*Frame)             : 0.314
Stream size                    : 1.39 GiB (85%)
Writing library                : XviD 1.2.1 (UTC 2008-12-04)

Audio
ID                             : 1
Format                         : AC-3
Format/Info                    : Audio Coding 3
Mode extension                 : CM (complete main)
Format settings, Endianness    : Big
Codec ID                       : 2000
Duration                       : 2h 7mn
Bit rate mode                  : Constant
Bit rate                       : 256 Kbps
Channel(s)                     : 6 channels
Channel positions              : Front: L C R, Side: L R, LFE
Sampling rate                  : 48.0 KHz
Bit depth                      : 16 bits
Compression mode               : Lossy
Delay relative to video        : 8ms
Stream size                    : 234 MiB (14%)
Alignment                      : Split accross interleaves
Interleave, duration           : 42 ms (1.00 video frame)
Interleave, preload duration   : 500 ms


http://www.filefactory.com/file/51gfheurervj/La.La.Land.2016.DVDScr.XVID.AC3.HQ.Hive-CM8.avi

http://uploaded.net/file/fpw3hl0l/La.La.Land.2016.DVDScr.XVID.AC3.HQ.Hive-CM8.avi
скачать dle 11.0фильмы бесплатно
Donate Bitcoin 1SLKcwi5VbQrpoKnXUGfBLVcj3VCWVfnQ
Donate Ether 0x032f4d361571dA8cF5602D3C73530817365052B8
0
Information
Users of Guests are not allowed to comment this publication.